Login
Username:
Password:
Remember Me:
[Signup]
[Recover Account]
Friends
BTScene
Friendly site

Free Courses Online
Friendly site

Anime RG
Friendly site

KaranPC
Friendly site

P2PDL.com
Friendly site

Free Tutorials & Courses
Friendly site
Torrent Details For "The Meg 2018 720p HDCAM x264 Dual Audio [Hindi (Cleaned) - English] [MW]"

The Meg 2018 720p HDCAM x264 Dual Audio [Hindi (Cleaned) - English] [MW]

To download this torrent, you need a BitTorrent client: Vuze or BTGuard
Download this torrent
Download using Magnet Link





Health:
Seeds: 310
Leechers: 1,102
Completed: 218 
Last Checked: 11-08-2018 10:20:22

Uploader Reputation points : 3834
External: Torrent




Write a Review for the Uploader:   15   Say Thanks with one good review:


Details
Name:The Meg 2018 720p HDCAM x264 Dual Audio [Hindi (Cleaned) - English] [MW]
Description:




General
Format                                   : Matroska
Format version                           : Version 4 / Version 2
File size                                : 1.21 GiB
Duration                                 : 1 h 43 min
Overall bit rate                         : 1 667 kb/s

Video
ID                                       : 1
Format                                   : AVC
Format/Info                              : Advanced Video Codec
Format profile                           : [email protected]
Format settings                          : CABAC / 4 Ref Frames
Format settings, CABAC                   : Yes
Format settings, RefFrames               : 4 frames
Codec ID                                 : V_MPEG4/ISO/AVC
Duration                                 : 1 h 43 min
Bit rate                                 : 1 400 kb/s
Width                                    : 1 280 pixels
Height                                   : 532 pixels
Display aspect ratio                     : 2.40:1
Frame rate mode                          : Constant
Frame rate                               : 29.970 (30000/1001) FPS
Color space                              : YUV
Chroma subsampling                       : 4:2:0
Bit depth                                : 8 bits
Scan type                                : Progressive
Bits/(Pixel*Frame)                       : 0.069
Stream size                              : 1.02 GiB (84%)
Writing library                          : x264 core 155 r2901 7d0ff22
Default                                  : Yes
Forced                                   : No

Audio #1
ID                                       : 2
Format                                   : AAC
Format/Info                              : Advanced Audio Codec
Format profile                           : LC
Codec ID                                 : A_AAC-2
Duration                                 : 1 h 43 min
Bit rate                                 : 128 kb/s
Channel(s)                               : 2 channels
Channel positions                        : Front: L R
Sampling rate                            : 48.0 kHz
Frame rate                               : 46.875 FPS (1024 SPF)
Compression mode                         : Lossy
Stream size                              : 94.9 MiB (8%)
Language                                 : Hindi
Default                                  : Yes
Forced                                   : No

Audio #2
ID                                       : 3
Format                                   : AAC
Format/Info                              : Advanced Audio Codec
Format profile                           : LC
Codec ID                                 : A_AAC-2
Duration                                 : 1 h 43 min
Bit rate                                 : 128 kb/s
Channel(s)                               : 2 channels
Channel positions                        : Front: L R
Sampling rate                            : 48.0 kHz
Frame rate                               : 46.875 FPS (1024 SPF)
Compression mode                         : Lossy
Stream size                              : 95.0 MiB (8%)
Language                                 : English
Default                                  : No
Forced                                   : No


http://pichub.site/image/RQOk6
http://pichub.site/image/RQRxt
http://pichub.site/image/RQST4
http://pichub.site/image/RQEDp
http://pichub.site/image/RQdmy
http://pichub.site/image/RQ7nb

YouTube Video:
Category:Movies
Language:Hindi  Hindi
Total Size:1.21 GB
Info Hash:6D9D3342D98F54D754117A187B26350D0B6A87C2
Added By:MovieFreak Verified UploaderMovie Pirate
Date Added:11-08-2018 09:00:05
Torrent Status:Torrent Verified


Ratings:Not Yet Rated (Log in to rate it)


Tracker:
udp://tracker.coppersurfer.tk:6969/announce

This Torrent also has backup trackers
URLSeedersLeechersCompleted
udp://tracker.coppersurfer.tk:6969/announce2610718
udp://tracker.pirateparty.gr:6969/announce2610718
udp://tracker.coppersurfer.tk:6969/announce2610718
udp://tracker.leechers-paradise.org:6969/announce229816
udp://eddie4.nl:6969/announce229816
udp://tracker.tiny-vps.com:6969/announce327520
udp://9.rarbg.me:2800/announce215728
udp://9.rarbg.to:2720/announce215728
udp://public.popcorn-tracker.org:6969/announce000
udp://open.stealth.si:80/announce28669
udp://tracker.vanitycore.co:6969/announce20625
udp://tracker.opentrackr.org:1337/announce227210
udp://bt.firebit.co.uk:6969/announce229816
udp://shadowshq.yi.org:6969/announce229816


File List: 



Warning! Do not Download Torrents Without a VPN!
Your IP Address is .   Location is
Your Internet Provider and Government can track your torrent Activity! Hide your IP ADDRESS with a VPN!
We strongly recommend using SpyOFF VPN to anonymize your Torrenting.It's FREE!
START YOUR FREE TRIAL NOW!


Comments
No comments still posted